Diễn đàn sinh viên Ngoinhachung.Net

 Quên mật khẩu
 Đăng ký

The Good Doctor S02E16

[Lấy địa chỉ]
buitrunghieu Đăng lúc 26-2-2019 17:59:21


The Good Doctor S02E16
WEBRip | MKV | 1920x1080 | English | H264 @ 6951 kbps | E-AC-3 @ 640 kbps | 43 min 4 s | 2.28 GiB
Subtitles: English
Genre: Drama
A young surgeon with Savant syndrome is recruited into the surgical unit of a prestigious hospital. The question will arise: can a person who doesn't have the ability to relate to people actually save their lives?

        General
Unique ID                                : 111544649946579898894929231457669513798 (0x53EAB7D8788101A89D64D52093FA8246)
Complete name                            : ./454ad4b6c3b44b0bb727d21efa920eeb.mkv
Format                                   : Matroska
Format version                           : Version 4 / Version 2
File size                                : 2.28 GiB
Duration                                 : 43 min 4 s
Overall bit rate                         : 7 594 kb/s
Encoded date                             : UTC 2019-02-26 08:00:58
Writing application                      : mkvmerge v30.1.0 ('Forever And More') 64-bit
Writing library                          : libebml v1.3.6 + libmatroska v1.4.9

Video
ID                                       : 1
Format                                   : AVC
Format/Info                              : Advanced Video Codec
Format profile                           : High@L4
Format settings                          : CABAC / 4 Ref Frames
Format settings, CABAC                   : Yes
Format settings, RefFrames               : 4 frames
Codec ID                                 : V_MPEG4/ISO/AVC
Duration                                 : 43 min 4 s
Bit rate mode                            : Constant
Bit rate                                 : 6 952 kb/s
Nominal bit rate                         : 10 000 kb/s
Width                                    : 1 920 pixels
Height                                   : 1 080 pixels
Display aspect ratio                     : 16:9
Frame rate mode                          : Constant
Frame rate                               : 23.976 (24000/1001) FPS
Color space                              : YUV
Chroma subsampling                       : 4:2:0
Bit depth                                : 8 bits
Scan type                                : Progressive
Bits/(Pixel*Frame)                       : 0.140
Stream size                              : 2.09 GiB (92%)
Language                                 : English
Default                                  : Yes
Forced                                   : No
Color range                              : Limited
Color primaries                          : BT.709
Transfer characteristics                 : BT.709
Matrix coefficients                      : BT.709

Audio
ID                                       : 2
Format                                   : E-AC-3
Format/Info                              : Enhanced Audio Coding 3
Format settings, Endianness              : Big
Codec ID                                 : A_EAC3
Duration                                 : 43 min 4 s
Bit rate mode                            : Constant
Bit rate                                 : 640 kb/s
Channel(s)                               : 6 channels
Channel positions                        : Front: L C R, Side: L R, LFE
Sampling rate                            : 48.0 kHz
Frame rate                               : 187.500 FPS (256 SPF)
Compression mode                         : Lossy
Stream size                              : 197 MiB (8%)
Language                                 : English
Service kind                             : Complete Main
Default                                  : Yes
Forced                                   : No

Text
ID                                       : 3
Format                                   : UTF-8
Codec ID                                 : S_TEXT/UTF8
Codec ID/Info                            : UTF-8 Plain Text
Duration                                 : 42 min 25 s
Bit rate                                 : 74 b/s
Count of elements                        : 750
Stream size                              : 23.2 KiB (0%)
Title                                    : English
Language                                 : English
Default                                  : No
Forced                                   : No








Download link:
  1. https://rapidgator.net/file/56ada699013287eefd439fad48d03627/vcwog.The.Good.Doctor.S02E16.mkv.html
  2. http://nitroflare.com/view/F2707FA609AFDBE/vcwog.The.Good.Doctor.S02E16.mkv
Sao chép mã

Links are Interchangeable - No Password - Single Extraction
Bạn phải đăng nhập mới được đăng bài Đăng nhập | Đăng ký


Diễn đàn chia sẻ thông tin cộng đồng, tài liệu chuyên ngành, kỹ năng mềm dành cho sinh viên Việt Nam Trao đổi: du lịch, tour du lich, dù lệch tâm, Du lịch Đà Nẵng, du lich nuoc ngoai, can ho One Verandah, trầm quảng nam, Tài Liệu, Luận Văn, Ebook miễn phí, Thư viện giáo án, ban backlink 2018, xì gà cuba, m88, https://chungcumydinhpearl.com.vn/, phụ kiện xì gà, bi quyet lam dep, đèn led thanh, đèn led âm đất, đèn led pha, Du lịch côn đảo
TD: ,

Lưu trữ|Phiên bản Mobile|Diễn đàn sinh viên Ngoinhachung.Net © 2006-2016
Đang chờ Bộ Thông Tin & Truyền Thông cấp phép theo Nghị định 97/2008/NĐ-CP
Diễn đàn chia sẻ thông tin cộng đồng, tài liệu chuyên ngành, kỹ năng mềm dành cho sinh viên Việt Nam
Chúng tôi sẽ không chịu bất kỳ trách nhiệm pháp lý nào đối với hoạt động của Thành viên.
Liên hệ: 0945.434.344 - (Toàn) - Email: wil8x@yahoo.com -
Check Google Page Rank - DMCA.com

GMT+7, 18-8-2019 00:56 , Processed in 0.493758 second(s), 27 queries , Gzip On.

N2C sử dụng mã nguồn Discuz!

Bản quyền mã nguồn thuộc về Comsenz Inc.
Thông tin quảng cáo trên Ngoinhachung.net

Lên trên