Diễn đàn sinh viên Ngoinhachung.Net

 Quên mật khẩu
 Đăng ký

Shadowhunters S03E11

[Lấy địa chỉ]
buitrunghieu Đăng lúc 26-2-2019 22:47:24


Shadowhunters S03E11
WEB-DL | MKV | 1920x1080 | English | H264 @ 10000 kbps | E-AC-3 @ 640 kbps | 42 min 5 s | 2.99 GiB
Subtitles: English
Genre: Drama
When Clary Fray's mother has disappeared, Clary joins a band of Shadowhunters; demon killing hunters, and gets caught up in a plan to save the world.

        General
Unique ID                                : 101975965733030148167480364808719171041 (0x4CB7DB4A391E70138319C17CE709FDE1)
Complete name                            : ./155f50d861c441a081aaaad5b0f8e4a6.mkv
Format                                   : Matroska
Format version                           : Version 4 / Version 2
File size                                : 2.99 GiB
Duration                                 : 42 min 5 s
Overall bit rate                         : 10.2 Mb/s
Encoded date                             : UTC 2019-02-26 10:19:15
Writing application                      : mkvmerge v21.0.0 ('Tardigrades Will Inherit The Earth') 64-bit
Writing library                          : libebml v1.3.5 + libmatroska v1.4.8

Video
ID                                       : 1
Format                                   : AVC
Format/Info                              : Advanced Video Codec
Format profile                           : High@L4
Format settings                          : CABAC / 4 Ref Frames
Format settings, CABAC                   : Yes
Format settings, RefFrames               : 4 frames
Codec ID                                 : V_MPEG4/ISO/AVC
Duration                                 : 42 min 5 s
Bit rate mode                            : Constant
Bit rate                                 : 10 000 kb/s
Width                                    : 1 920 pixels
Height                                   : 1 080 pixels
Display aspect ratio                     : 16:9
Frame rate mode                          : Constant
Frame rate                               : 23.976 (24000/1001) FPS
Color space                              : YUV
Chroma subsampling                       : 4:2:0
Bit depth                                : 8 bits
Scan type                                : Progressive
Bits/(Pixel*Frame)                       : 0.201
Stream size                              : 2.80 GiB (94%)
Default                                  : Yes
Forced                                   : No
Color range                              : Limited
Color primaries                          : BT.709
Transfer characteristics                 : BT.709
Matrix coefficients                      : BT.709

Audio
ID                                       : 2
Format                                   : E-AC-3
Format/Info                              : Enhanced Audio Coding 3
Format settings, Endianness              : Big
Codec ID                                 : A_EAC3
Duration                                 : 42 min 5 s
Bit rate mode                            : Constant
Bit rate                                 : 640 kb/s
Channel(s)                               : 6 channels
Channel positions                        : Front: L C R, Side: L R, LFE
Sampling rate                            : 48.0 kHz
Frame rate                               : 187.500 FPS (256 SPF)
Compression mode                         : Lossy
Stream size                              : 193 MiB (6%)
Language                                 : English
Service kind                             : Complete Main
Default                                  : Yes
Forced                                   : No

Text
ID                                       : 3
Format                                   : UTF-8
Codec ID                                 : S_TEXT/UTF8
Codec ID/Info                            : UTF-8 Plain Text
Duration                                 : 41 min 57 s
Bit rate                                 : 65 b/s
Count of elements                        : 743
Stream size                              : 20.0 KiB (0%)
Title                                    : SDH
Language                                 : English
Default                                  : No
Forced                                   : No
   







Download link:
  1. https://rapidgator.net/file/87d1262c1ff2100d8b9a28d6dfaf180c/5p5pn.Shadowhunters.S03E11.mkv.html
  2. http://nitroflare.com/view/23E87F6909F5EA9/5p5pn.Shadowhunters.S03E11.mkv
Sao chép mã

Links are Interchangeable - No Password - Single Extraction
Bạn phải đăng nhập mới được đăng bài Đăng nhập | Đăng ký


Diễn đàn chia sẻ thông tin cộng đồng, tài liệu chuyên ngành, kỹ năng mềm dành cho sinh viên Việt Nam Trao đổi: du lịch, tour du lich, dù lệch tâm, Du lịch Đà Nẵng, du lich nuoc ngoai, can ho One Verandah, trầm quảng nam, Tài Liệu, Luận Văn, Ebook miễn phí, Thư viện giáo án, ban backlink 2018, xì gà cuba, m88, https://chungcumydinhpearl.com.vn/, phụ kiện xì gà, bi quyet lam dep, đèn led thanh, đèn led âm đất, đèn led pha, Du lịch côn đảo
TD: ,

Lưu trữ|Phiên bản Mobile|Diễn đàn sinh viên Ngoinhachung.Net © 2006-2016
Đang chờ Bộ Thông Tin & Truyền Thông cấp phép theo Nghị định 97/2008/NĐ-CP
Diễn đàn chia sẻ thông tin cộng đồng, tài liệu chuyên ngành, kỹ năng mềm dành cho sinh viên Việt Nam
Chúng tôi sẽ không chịu bất kỳ trách nhiệm pháp lý nào đối với hoạt động của Thành viên.
Liên hệ: 0945.434.344 - (Toàn) - Email: wil8x@yahoo.com -
Check Google Page Rank - DMCA.com

GMT+7, 25-8-2019 18:51 , Processed in 0.097261 second(s), 22 queries , Gzip On.

N2C sử dụng mã nguồn Discuz!

Bản quyền mã nguồn thuộc về Comsenz Inc.
Thông tin quảng cáo trên Ngoinhachung.net

Lên trên